<?xml version="1.0" standalone="no"?>
<!DOCTYPE svg PUBLIC "-//W3C//DTD SVG 1.1//EN" "http://www.w3.org/Graphics/SVG/1.1/DTD/svg11.dtd">
<svg xmlns="http://www.w3.org/2000/svg">
<metadata>Generated by Fontastic.me</metadata>
<defs>
<font id="support-board" horiz-adv-x="512">
<font-face font-family="support-board" units-per-em="512" ascent="480" descent="-32"/>
<missing-glyph horiz-adv-x="512" />

<glyph glyph-name="agents" unicode="&#99;" d="M431 317l0 20c0 47-17 91-47 123-31 34-73 52-120 52l-16 0c-46 0-89-18-120-52-30-32-47-76-47-123l0-20c-37-2-66-33-66-70l0-31c0-39 32-70 71-70l39 0c7 0 13 6 13 13l0 146c0 7-6 13-13 13l-18 0 0 19c0 85 61 149 141 149l16 0c81 0 141-64 141-149l0-19-18 0c-7 0-13-6-13-13l0-146c0-7 6-13 13-13l18 0c-6-67-52-83-73-87-6 19-23 32-44 32l-32 0c-25 0-45-21-45-46 0-25 20-45 45-45l33 0c20 0 38 14 43 33 11 2 27 6 44 15 23 14 51 42 55 98 37 2 66 33 66 70l0 31c0 37-29 68-66 70z m-318-145l-27 0c-25 0-45 20-45 44l0 31c0 25 20 45 45 45l27 0z m176-146l-33 0c-11 0-19 9-19 19 0 11 8 20 19 20l33 0c10 0 19-9 19-20 0-10-9-19-19-19z m182 190c0-24-20-44-45-44l-26 0 0 120 26 0c25 0 45-20 45-45z"/>
<glyph glyph-name="chat" unicode="&#100;" d="M437 437c-48 48-113 75-181 75-68 0-133-27-181-75-93-93-100-242-17-343-11-24-25-39-40-47-10-5-15-15-13-25 1-10 9-18 20-20 5-1 11-1 18-1 31 0 64 10 92 29 37-19 79-30 121-30 68 0 133 27 181 75 48 48 75 113 75 181 0 68-27 133-75 181z m-21-341c-42-43-99-67-160-67-41 0-80 11-115 31-2 2-5 2-7 2-3 0-7-1-9-3-33-25-66-29-80-29 17 13 31 33 43 60 3 6 2 12-2 16-79 89-75 226 10 311 42 43 99 66 160 66 61 0 118-23 160-66 89-89 89-233 0-321z m-53 244l-214 0c-8 0-15-6-15-14 0-8 7-14 15-14l214 0c8 0 15 6 15 14 0 8-7 14-15 14z m0-70l-214 0c-8 0-15-6-15-14 0-8 7-14 15-14l214 0c8 0 15 6 15 14 0 8-7 14-15 14z m0-70l-214 0c-8 0-15-6-15-14 0-8 7-14 15-14l214 0c8 0 15 6 15 14 0 8-7 14-15 14z"/>
<glyph glyph-name="clip" unicode="&#101;" d="M473 450c-51 51-135 51-187 0l-257-257c-39-39-39-102 0-141 32-32 80-37 118-16 4 0 8 2 11 5l257 257c26 26 26 67 0 93-26 26-68 26-94 0l-210-210c-7-7-7-17 0-24 6-6 17-6 23 0l211 211c13 13 34 13 46 0 13-13 13-34 0-47l-245-245c-26-26-68-26-94 0-25 25-25 67 0 93l258 257c38 39 101 39 140 0 39-38 39-101 0-140l-234-234c-6-6-6-17 0-23 7-7 17-7 23 0l234 234c52 51 52 135 0 187z"/>
<glyph glyph-name="download" unicode="&#102;" d="M169 302c-5-6-5-15 0-21l77-76c3-3 6-5 10-5 4 0 7 2 10 5l77 76c5 6 5 15 0 21-6 5-15 5-21 0l-52-52 0 248c0 8-6 14-14 14-8 0-14-6-14-14l0-248-52 52c-6 5-15 5-21 0z m323-119l-50 182c-2 4-4 8-8 9l-2 1c-2 1-4 1-6 1l-90 0c-8 0-15-6-15-14 0-8 7-15 15-15l81 0 42-153-112 0c-8 0-15-7-15-15l0-13c0-19-15-34-34-34l-88 0c-19 0-35 15-35 34l0 13c0 8-6 15-14 15l-108 0 42 154 81 0c8 0 15 6 15 14 0 8-7 15-15 15l-90 0c-2 0-4-1-6-2l-2 0c-4-2-7-5-8-10l-50-181c0-2 0-3 0-4l0-76c0-57 46-104 104-104l264 0c58 0 104 47 104 104l0 76c0 1 0 2 0 3z m-28-79c0-41-34-75-76-75l-264 0c-42 0-76 34-76 75l0 61 98 0c1-34 29-62 64-62l88 0c35 0 63 28 64 62l102 0 0-61z"/>
<glyph glyph-name="envelope" unicode="&#103;" d="M449 451l-386 0c-35 0-63-28-63-63l0-264c0-35 28-63 63-63l386 0c35 0 63 28 63 63l0 264c0 35-28 63-63 63z m35-327c0-19-16-34-35-34l-386 0c-19 0-34 15-34 34l0 264c0 19 15 34 34 34l386 0c19 0 34-15 34-34l0-264z m-161 135l125 113c6 5 6 14 1 20-5 6-14 6-20 1l-173-155-33 30c-1 0-1 0-1 0 0 1-1 2-2 2l-137 123c-6 5-15 5-20-1-6-6-5-15 1-20l127-114-127-118c-5-5-6-14 0-20 3-3 6-5 10-5 4 0 7 2 10 4l128 120 35-31c3-2 6-4 9-4 4 0 7 2 10 4l36 32 127-121c3-3 6-4 10-4 4 0 7 2 10 5 6 5 5 14 0 20z"/>
<glyph glyph-name="marker" unicode="&#104;" d="M256 410c-59 0-107-48-107-107 0-59 48-107 107-107 59 0 107 48 107 107 0 59-48 107-107 107z m0-189c-45 0-82 37-82 82 0 45 37 81 82 81 45 0 81-36 81-81 0-45-36-82-81-82z m0 291c-3 0-5 0-7 0-104-4-189-84-199-187-2-20-1-40 3-59 0 0 0-2 1-7 3-14 8-27 14-40 21-51 68-128 169-212 5-5 12-7 19-7 7 0 14 2 19 7 101 84 148 161 169 211 6 13 11 27 14 41 0 3 1 5 1 7 3 13 4 26 4 39 0 114-93 207-207 207z m178-242c0 0-1-2-1-5-3-12-7-24-13-36-20-48-64-122-161-202-1-1-2-1-3-1-1 0-2 0-3 1-97 80-141 154-162 202-5 12-9 24-12 36 0 3-1 5-1 5 0 0 0 1 0 1-3 17-4 34-2 52 8 90 83 160 173 163 103 4 188-79 188-181 0-11-1-23-3-35z"/>
<glyph glyph-name="message" unicode="&#105;" d="M430 477l-348 0c-37 0-66-29-66-66l0-213c0-36 29-66 66-66l0-96 139 96 209 0c36 0 66 30 66 66l0 213c0 37-30 66-66 66z m38-279c0-21-17-38-38-38l-218 0-102-71 0 71-28 0c-21 0-38 17-38 38l0 213c0 21 17 38 38 38l348 0c21 0 38-17 38-38z m-324 180l223 0 0-28-223 0z m0-60l223 0 0-28-223 0z m0-60l223 0 0-28-223 0z"/>
<glyph glyph-name="desktop" unicode="&#106;" d="M449 486l-386 0c-35 0-63-28-63-63l0-245c0-35 28-63 63-63l179 0 0-60-89 0c-8 0-15-7-15-15 0-8 7-14 15-14l206 0c8 0 15 6 15 14 0 8-7 15-15 15l-89 0 0 60 179 0c35 0 63 28 63 63l0 245c0 35-28 63-63 63z m-386-29l386 0c19 0 34-15 34-34l0-205-454 0 0 205c0 19 15 34 34 34z m386-313l-386 0c-19 0-34 15-34 34l0 12 454 0 0-12c0-19-15-34-34-34z"/>
<glyph glyph-name="plane" unicode="&#107;" d="M508 508c-5 4-11 5-17 3l-482-212c-5-2-9-7-9-13 0-5 3-10 7-13l169-96 100-170c2-4 7-7 12-7 1 0 1 0 1 0 6 0 10 4 13 9l209 482c2 6 1 12-3 17z m-77-56l-247-245-136 77z m-145-405l-81 139 248 247z"/>
<glyph glyph-name="phone" unicode="&#108;" d="M363 0c2 0 4 0 6 0 25 0 46 9 62 26 0 1 0 1 0 1 6 7 13 13 20 20 4 4 9 9 14 14 21 22 21 51-1 72l-59 60c-11 11-23 16-36 16-13 0-25-5-36-16l-35-35c-3 2-7 3-10 5-4 2-8 4-11 6-32 20-62 47-90 82-14 18-23 32-30 48 9 8 18 17 26 25 3 3 6 7 10 10 22 22 22 50 0 72l-30 30c-4 4-7 7-10 10-7 7-14 14-21 20-10 11-22 16-35 16-13 0-25-5-36-16l-37-37c-14-13-22-30-23-49-2-24 2-50 14-80 17-48 43-92 83-139 47-56 104-101 169-133 25-12 59-25 96-28z m-246 178c-37 45-62 86-78 131-10 27-14 48-13 69 2 13 7 24 16 33l37 37c6 6 12 8 18 8 6 0 12-2 18-8 6-6 13-13 19-20 4-3 7-7 11-10l29-30c13-12 13-24 0-36-3-3-6-6-9-9-9-10-18-19-27-27-1 0-1 0-1-1-8-8-7-16-5-22 0-1 0-1 0-1 8-19 19-36 35-57 30-37 62-66 97-88 4-3 8-5 13-7 4-2 8-4 11-6 0 0 1 0 1-1 3-1 7-2 10-2 8 0 13 5 15 7l37 37c6 6 12 9 18 9 8 0 13-5 17-9l60-60c15-15 8-28 0-37-4-4-9-8-13-13-7-7-14-14-21-21-11-13-25-18-42-18-2 0-4 0-5 0-33 2-63 15-86 26-62 29-117 72-162 126z m164 240c-7 1-13-3-14-10-2-7 3-14 10-15 29-5 55-19 76-39 21-21 35-48 40-77 1-6 6-10 12-10 1 0 2 0 3 0 7 1 11 8 10 15-6 34-22 65-47 90-24 24-55 41-90 46z m218-147c1 0 1 0 2 0 7 1 12 8 10 15-9 57-36 108-77 149-40 41-92 67-148 77-7 1-14-4-15-11-1-7 3-13 10-14 52-9 98-33 135-70 37-37 61-84 70-135 1-6 7-11 13-11z"/>
<glyph glyph-name="settings" unicode="&#109;" d="M486 310l-36 6c-4 12-9 24-15 35l22 29c9 13 7 30-4 41l-32 32c-6 6-14 9-22 9-7 0-13-2-18-6l-30-21c-12 6-24 11-36 15l-6 36c-3 15-16 26-31 26l-45 0c-16 0-29-11-32-26l-6-37c-12-4-24-8-35-14l-29 21c-5 4-12 6-18 6-9 0-17-4-23-10l-32-32c-11-10-12-28-3-40l21-30c-6-12-10-23-14-35l-36-6c-15-3-26-16-26-32l0-45c0-15 11-28 26-31l37-6c4-12 8-24 14-35l-21-29c-9-13-7-30 4-41l32-32c6-6 14-9 22-9 7 0 13 2 18 6l30 21c11-5 23-10 34-14l6-36c3-15 16-26 31-26l46 0c15 0 28 11 31 26l6 36c12 4 24 9 35 15l29-21c6-4 12-6 19-6 8 0 16 3 22 9l32 32c11 11 12 28 3 41l-21 29c6 12 11 23 15 35l36 6c15 3 26 16 26 31l0 46c0 15-11 28-26 31z m-3-77c0-1-1-2-2-2l-45-8c-6-1-10-5-11-10-5-16-11-31-19-45-3-5-3-11 1-16l26-37c1-1 1-3 0-4l-32-32c-1 0-2 0-2 0-1 0-1 0-2 0l-37 26c-5 4-11 4-16 1-14-8-29-14-45-19-5-1-9-5-10-11l-8-45c0-1-1-2-2-2l-46 0c-1 0-2 1-2 2l-8 45c-1 6-5 10-10 11-16 4-30 11-44 18-2 2-5 2-7 2-3 0-6 0-9-2l-37-27c-1 0-1 0-2 0 0 0-1 0-2 0l-32 32c-1 1-1 3 0 4l26 37c4 5 4 11 1 16-8 14-15 29-19 44-1 6-6 10-12 11l-45 8c-1 0-2 1-2 2l0 45c0 2 1 3 2 3l45 8c6 1 10 5 11 10 4 16 11 31 19 45 3 5 2 11-1 16l-27 37c0 1 0 3 1 4l32 32c0 1 1 1 2 1 0 0 1 0 1-1l37-26c5-3 11-4 16-1 14 9 29 15 45 19 5 2 9 6 10 12l8 45c0 1 1 2 3 2l45 0c1 0 2-1 3-2l7-45c1-5 5-10 11-11 16-4 31-11 46-19 5-3 11-3 15 0l37 27c1 0 1 0 2 0 0 0 1 0 2 0l32-32c1-1 1-3 0-4l-26-37c-4-5-4-11-1-16 8-14 15-29 19-45 1-5 6-9 11-10l45-8c1 0 2-1 2-2l0-46z m-227 134c-61 0-110-50-110-111 0-61 49-110 110-110 61 0 111 49 111 110 0 61-50 111-111 111z m0-193c-45 0-82 37-82 82 0 45 37 82 82 82 45 0 82-37 82-82 0-45-37-82-82-82z"/>
<glyph glyph-name="user" unicode="&#110;" d="M254 236c1 0 1 0 2 0 0 0 0 0 0 0 1 0 1 0 2 0 31 1 56 12 74 32 41 46 34 125 34 133-3 56-30 83-52 96-16 9-35 15-57 15l-1 0c0 0 0 0 0 0l-1 0c-11 0-35-2-57-15-22-12-49-39-52-96-1-8-7-87 34-133 18-20 43-31 74-32z m-79 162c0 1 0 1 0 1 3 76 57 84 80 84l1 0c0 0 0 0 0 0 29 0 78-12 81-84 0 0 0-1 0-1 0-1 8-73-26-111-13-15-31-22-55-22 0 0 0 0 0 0 0 0 0 0-1 0-23 0-41 7-54 22-34 38-27 111-26 111z m299-293c0 0 0 0 0 1 0 0 0 1 0 2-1 21-2 70-48 86-1 0-1 0-1 0-48 13-88 40-88 40-7 5-16 3-20-3-5-7-3-15 3-20 2-1 44-31 97-44 25-9 27-35 28-60 0-1 0-1 0-2 0-10 0-25-2-33-17-10-85-43-187-43-102 0-170 33-187 43-2 9-2 23-2 33 0 1 0 2 0 3 1 24 3 50 28 59 53 13 95 43 97 44 6 5 8 14 3 20-4 6-13 8-20 4 0-1-39-28-88-41 0 0 0 0-1 0-46-16-47-65-48-86 0-1 0-1 0-2 0 0 0-1 0-1 0-5 0-33 6-48 1-2 3-5 5-6 3-2 80-51 207-51 128 0 204 49 207 51 3 1 5 4 6 6 5 14 5 43 5 48z"/>
<glyph glyph-name="arrow-down" unicode="&#97;" d="M468 389l-212-212-212 212c-10 11-26 11-36 0-11-10-11-26 0-36l230-230c10-11 26-11 36 0l230 230c11 10 11 26 0 36-10 10-26 10-36 0z"/>
<glyph glyph-name="calendar" unicode="&#98;" d="M512 424c0 27-22 49-48 49l-51 0 0 23c0 9-7 16-16 16-9 0-16-7-16-16l0-23-251 0 0 23c0 9-7 16-16 16-9 0-16-7-16-16l0-23-50 0c-26 0-48-22-48-49l0-73c0-1 0-2 1-3-1-1-1-2-1-2 0 0 0-1 0-1 0 0 0 0 0 0l0-297c0-26 22-48 48-48l416 0c26 0 48 22 48 48l0 297c0 0 0 0 0 0 0 0 0 0 0 1 0 0 0 1-1 2 1 1 1 2 1 3z m-32-376c0-9-7-16-16-16l-416 0c-9 0-16 7-16 16l0 281 448 0z m0 314l-448 0 0 62c0 9 7 16 16 16l50 0 0-23c0-9 7-16 16-16 9 0 16 7 16 16l0 23 251 0 0-23c0-9 7-16 16-16 9 0 16 7 16 16l0 23 51 0c9 0 16-7 16-16z m-295-121c0 9-7 17-16 17-8 0-16-8-16-17 0-9 8-16 16-16 9 0 16 7 16 16z m78 0c0 9-7 17-16 17-9 0-16-8-16-17 0-9 7-16 16-16 9 0 16 7 16 16z m86 0c0 9-7 17-16 17-9 0-16-8-16-17 0-9 7-16 16-16 9 0 16 7 16 16z m89 0c0 9-8 17-16 17-9 0-16-8-16-17 0-9 7-16 16-16 8 0 16 7 16 16z m-332-55c0 8-7 16-16 16-8 0-16-8-16-16 0-9 8-17 16-17 9 0 16 8 16 17z m79 0c0 8-7 16-16 16-8 0-16-8-16-16 0-9 8-17 16-17 9 0 16 8 16 17z m78 0c0 8-7 16-16 16-9 0-16-8-16-16 0-9 7-17 16-17 9 0 16 8 16 17z m86 0c0 8-7 16-16 16-9 0-16-8-16-16 0-9 7-17 16-17 9 0 16 8 16 17z m89 0c0 8-8 16-16 16-9 0-16-8-16-16 0-9 7-17 16-17 8 0 16 8 16 17z m-332-56c0 9-7 16-16 16-8 0-16-7-16-16 0-9 8-16 16-16 9 0 16 7 16 16z m79 0c0 9-7 16-16 16-8 0-16-7-16-16 0-9 8-16 16-16 9 0 16 7 16 16z m78 0c0 9-7 16-16 16-9 0-16-7-16-16 0-9 7-16 16-16 9 0 16 7 16 16z m86 0c0 9-7 16-16 16-9 0-16-7-16-16 0-9 7-16 16-16 9 0 16 7 16 16z m89 0c0 9-8 16-16 16-9 0-16-7-16-16 0-9 7-16 16-16 8 0 16 7 16 16z m-332-56c0 9-7 16-16 16-8 0-16-7-16-16 0-9 8-16 16-16 9 0 16 7 16 16z m79 0c0 9-7 16-16 16-8 0-16-7-16-16 0-9 8-16 16-16 9 0 16 7 16 16z m78 0c0 9-7 16-16 16-9 0-16-7-16-16 0-9 7-16 16-16 9 0 16 7 16 16z"/>
<glyph glyph-name="search" unicode="&#111;" d="M495 46l-118 118c29 35 47 81 47 130 0 114-92 207-206 207-115 0-207-93-207-207 0-114 92-206 207-206 49 0 95 17 130 47l118-118c8-8 21-8 29 0 8 8 8 21 0 29z m-277 83c-92 0-166 74-166 165 0 92 74 166 166 166 91 0 165-74 165-166 0-91-74-165-165-165z"/>
<glyph glyph-name="close" unicode="&#112;" d="M301 256l202 201c12 13 12 33 0 46-13 12-33 12-46 0l-201-202-201 202c-13 12-33 12-46 0-12-13-12-33 0-46l202-201-202-201c-12-13-12-33 0-46 7-6 15-9 23-9 8 0 16 3 23 9l201 202 201-202c7-6 15-9 23-9 8 0 16 3 23 9 12 13 12 33 0 46z"/>
<glyph glyph-name="message-add" unicode="&#113;" d="M420 284c1-7 7-12 14-11 7 1 12 7 12 14-13 100-108 176-223 176-123 0-223-89-223-197 0-43 16-85 45-119-6-13-15-23-26-30-6-4-9-12-8-20 2-7 8-13 16-14 17-2 50-4 82 13 35-18 74-28 114-28 24 0 47 3 69 9 7 2 11 9 9 16-2 7-9 11-16 9-20-6-41-8-62-8-38 0-76 9-108 28-4 2-9 2-13-1-18-11-38-14-54-14 0 0 0 0 0 0 10 10 18 23 24 38 1 4 0 10-3 13-29 31-43 68-43 108 0 94 88 171 197 171 102 0 186-65 197-153z m-183-18c0-8-6-15-14-15-8 0-14 7-14 15 0 7 6 14 14 14 8 0 14-7 14-14z m-61 0c0-8-6-15-14-15-8 0-14 7-14 15 0 7 6 14 14 14 8 0 14-7 14-14z m123 0c0-8-7-15-14-15-8 0-15 7-15 15 0 7 7 14 15 14 7 0 14-7 14-14z m107-5c-59 0-106-47-106-106 0-58 47-106 106-106 58 0 106 48 106 106 0 59-48 106-106 106z m0-186c-45 0-81 36-81 80 0 44 37 81 81 81 44 0 80-37 80-81 0-44-36-80-80-80z m33 93l-20 0 0 20c0 7-6 13-13 13-7 0-13-6-13-13l0-20-20 0c-7 0-13-6-13-13 0-7 6-13 13-13l20 0 0-20c0-7 6-13 13-13 7 0 13 6 13 13l0 20 20 0c7 0 13 6 13 13 0 7-6 13-13 13z"/>
<glyph glyph-name="emoji" unicode="&#114;" d="M256 512c-141 0-256-115-256-256 0-141 115-256 256-256 141 0 256 115 256 256 0 141-115 256-256 256z m0-484c-63 0-120 25-161 66-16 17-30 35-41 56-17 32-26 68-26 106 0 126 102 228 228 228 60 0 114-23 155-60 21-20 38-43 51-70 14-29 22-63 22-98 0-126-102-228-228-228z m-56 285c0-15-12-28-28-28-15 0-27 13-27 28 0 15 12 28 27 28 16 0 28-13 28-28z m171 0c0-15-12-28-27-28-16 0-28 13-28 28 0 15 12 28 28 28 15 0 27-13 27-28z m-115-199c53 0 104 28 134 73l-23 15c-27-42-77-65-126-59-39 4-74 26-95 59l-24-15c26-40 69-66 116-72 6 0 12-1 18-1z"/>
<glyph glyph-name="menu" unicode="&#115;" d="M320 256c0-35-29-64-64-64-35 0-64 29-64 64 0 35 29 64 64 64 35 0 64-29 64-64z m0-192c0-35-29-64-64-64-35 0-64 29-64 64 0 35 29 64 64 64 35 0 64-29 64-64z m0 384c0-35-29-64-64-64-35 0-64 29-64 64 0 35 29 64 64 64 35 0 64-29 64-64z"/>
<glyph glyph-name="arrow-left" unicode="&#116;" d="M123 238l230-230c10-11 26-11 36 0 10 10 10 26 0 36l-212 212 212 212c10 10 10 26 0 36-10 11-26 11-36 0l-230-230c-10-10-10-26 0-36z"/>
<glyph glyph-name="arrow-right" unicode="&#117;" d="M389 274l-230 230c-10 11-26 11-36 0-10-10-10-26 0-36l212-212-212-212c-10-10-10-26 0-36 10-11 26-11 36 0l230 230c10 10 10 26 0 36z"/>
<glyph glyph-name="check" unicode="&#119;" d="M505 437c-10 10-27 10-37 0l-306-307-118 118c-10 10-27 10-37 0-10-10-10-27 0-37l136-136c10-10 27-9 37 0l325 325c10 10 10 27 0 37z"/>
<glyph glyph-name="loader" unicode="&#118;" d="M450 255c0 105-86 191-191 191-106 0-192-86-192-191l42 0c0 82 67 149 150 149 82 0 149-67 149-149z"/>
<glyph glyph-name="delete" unicode="&#120;" d="M469 438l-106 0 0 18c0 31-25 56-56 56l-102 0c-31 0-56-25-56-56l0-18-106 0c-8 0-15-6-15-14 0-8 7-14 15-14l25 0 0-334c0-42 34-76 76-76l224 0c42 0 76 34 76 76l0 334 25 0c8 0 15 6 15 14 0 8-7 14-15 14z m-292 18c0 15 13 28 28 28l102 0c15 0 28-13 28-28l0-18-158 0z m238-380c0-26-21-48-47-48l-224 0c-26 0-47 22-47 48l0 334 318 0 0-334z m-159 3c8 0 14 7 14 15l0 251c0 8-6 14-14 14-8 0-14-6-14-14l0-251c0-8 6-15 14-15z m-93 16c8 0 14 6 14 14l0 220c0 8-6 14-14 14-8 0-14-6-14-14l0-220c0-8 6-14 14-14z m186 0c8 0 14 6 14 14l0 220c0 8-6 14-14 14-8 0-14-6-14-14l0-220c0-8 6-14 14-14z"/>
<glyph glyph-name="padlock" unicode="&#121;" d="M85 0l342 0c20 0 37 17 37 37l0 204c0 21-17 38-37 38l-27 0 0 89c0 79-64 144-144 144-80 0-144-65-144-144l0-89-27 0c-20 0-37-17-37-38l0-204c0-20 17-37 37-37z m52 368c0 65 54 118 119 118 65 0 119-53 119-118l0-89-238 0z m-63-127c0 7 5 12 11 12l342 0c6 0 11-5 11-12l0-204c0-6-5-11-11-11l-342 0c-6 0-11 5-11 11 0 0 0 204 0 204z m182-154c29 0 52 24 52 53 0 28-23 52-52 52-29 0-52-24-52-52 0-29 23-53 52-53z m0 79c15 0 27-12 27-27 0-14-12-26-27-26-15 0-27 12-27 26 0 15 12 27 27 27z"/>
<glyph glyph-name="shuffle" unicode="&#122;" d="M203 173l16 25c4 6 2 14-4 18-6 4-14 2-18-4l-16-25c-28-46-69-73-111-73l-57 0c-7 0-13-5-13-12 0-8 6-13 13-13l57 0c52 0 100 31 133 84z m305 246l-62 62c-5 5-13 5-18 0-5-5-5-13 0-18l40-40c0 0 0 0 0 0l-59 0c-52 0-100-31-133-84l-10-16c-4-6-2-14 4-17 2-2 5-2 7-2 4 0 9 2 11 6l10 15c28 46 68 72 111 72l59 0c0 0 0 0 0 0l-40-40c-5-5-5-13 0-18 2-2 6-4 9-4 3 0 7 2 9 4l62 62c5 5 5 13 0 18z m-27-9c0 0 0 0 0 0 0 0 0 0 0 1l0-1z m-53-379c2-3 6-4 9-4 3 0 7 1 9 4l62 62c5 5 5 13 0 18l-62 62c-5 5-13 5-18 0-5-5-5-13 0-18l40-41c0 0 0 0 0 0l-57 0c-43 0-83 27-112 73l-94 152c-33 53-82 84-133 84l-59 0c-7 0-13-6-13-13 0-7 6-13 13-13l59 0c42 0 83-26 111-72l95-152c33-54 81-84 133-84l57 0c0 0 0 0 0 0l-40-41c-5-4-5-12 0-17z m53 71l0 0 0-1c0 1 0 1 0 1 0 0 0 0 0 0z"/>
<glyph glyph-name="back" unicode="&#65;" d="M450 245c-37 45-107 99-230 103l0 84c0 5-3 9-8 12-4 2-10 1-13-2l-194-160c-3-2-5-6-5-10 0-4 2-7 5-10l194-160c3-3 9-4 13-2 5 2 7 7 7 12l0 83c81 0 204-6 269-121 2-4 7-7 11-7 1 0 2 0 3 1 6 1 10 6 10 12 0 43-16 109-62 165z m-243-24c-4 0-7-2-9-4-3-2-4-6-4-9l0-69-161 133 161 133 0-69c0-7 6-13 13-13 184-2 253-114 273-193-80 91-199 91-273 91z"/>
<glyph glyph-name="file" unicode="&#66;" d="M372 290l0 97c0 3-1 6-3 8l-109 114c-2 2-5 3-8 3l-172 0c-32 0-57-26-57-58l0-325c0-32 25-58 57-58l136 0c26-42 73-71 126-71 81 0 147 66 147 147 0 70-51 130-117 143z m-109 185l73-77-47 0c-14 0-26 11-26 26z m-183-382c-20 0-36 16-36 36l0 325c0 20 16 37 36 37l162 0 0-67c0-26 21-48 47-48l62 0 0-83c-4 0-6 1-9 1-37 0-71-15-97-37l-136 0c-6 0-10-5-10-11 0-6 4-10 10-10l116 0c-8-11-14-22-19-34l-97 0c-6 0-10-4-10-10 0-6 4-11 10-11l90 0c-2-11-4-22-4-34 0-19 4-38 11-54l-126 0z m262-72c-69 0-125 56-125 126 0 69 56 125 125 125 69 0 125-56 125-125 0-70-56-126-125-126z m-233 268l108 0c6 0 11 5 11 11 0 6-5 10-11 10l-108 0c-6 0-10-4-10-10 0-6 4-11 10-11z m288-140l-44-47 0 116c0 6-5 11-11 11-6 0-11-5-11-11l0-116-44 47c-4 4-11 4-15 0-4-4-5-10 0-15l62-67c2-2 5-3 8-3 3 0 6 1 8 3l62 67c4 5 4 11 0 15-5 4-11 4-15 0z"/>
<glyph glyph-name="check-circle" unicode="&#67;" d="M256 512c-141 0-256-115-256-256 0-141 115-256 256-256 141 0 256 115 256 256 0 141-115 256-256 256z m0-486c-127 0-230 103-230 230 0 127 103 230 230 230 127 0 230-103 230-230 0-127-103-230-230-230z m67 292l-98-97-36 36c-5 5-13 5-18 0-5-5-5-13 0-18l45-45c2-3 5-4 9-4 3 0 6 1 9 4l107 106c5 5 5 13 0 18-5 5-13 5-18 0z"/>
<glyph glyph-name="reload" unicode="&#68;" d="M117 410c76 69 189 70 266 7l-61-2c-8 0-14-7-14-14 1-8 7-14 14-14 1 0 1 0 1 0l93 3c8 1 14 7 14 15l0 1c0 0 0 0 0 0l0 0-4 92c0 8-7 14-14 14-8 0-14-7-14-15l2-57c-38 31-84 49-134 51-62 3-122-18-168-60-63-57-90-144-70-227 2-6 8-10 14-10 1 0 2 0 4 0 7 2 12 10 10 17-18 73 6 149 61 199z m367-102c-2 7-10 12-18 10-7-2-12-10-10-17 18-73-6-149-61-199-39-36-88-53-137-53-46 0-93 16-130 47l61 5c8 1 14 8 13 16-1 8-8 13-15 13l-93-9c-8-1-14-7-13-15l8-93c1-7 7-13 14-13 1 0 1 0 2 0 7 1 13 8 12 15l-5 57c38-31 85-49 134-51 4 0 8 0 12 0 58 0 113 21 156 60 63 57 90 144 70 227z"/>
<glyph glyph-name="help" unicode="&#69;" d="M277 128c0-12-9-21-21-21-12 0-21 9-21 21 0 12 9 21 21 21 12 0 21-9 21-21z m-21-128c-141 0-256 115-256 256 0 141 115 256 256 256 141 0 256-115 256-256 0-141-115-256-256-256z m0 480c-124 0-224-100-224-224 0-124 100-224 224-224 124 0 224 100 224 224 0 124-100 224-224 224z m0-283c-9 0-16 7-16 16l0 22c0 20 13 38 32 45 26 9 43 36 43 56 0 32-27 59-59 59-32 0-59-27-59-59 0-9-7-16-16-16-8 0-16 7-16 16 0 50 41 91 91 91 50 0 91-41 91-91 0-36-28-73-64-86-7-2-11-8-11-15l0-22c0-9-7-16-16-16z"/>
<glyph glyph-name="currency" unicode="&#72;" d="M443 422c-44 44-103 69-166 69-64 0-123-25-168-71-5-5-5-13 0-18 5-5 13-5 18 0 40 41 93 63 150 63 116 1 210-93 210-209 0-116-94-210-210-210-115 0-209 94-209 210l0 3 21-21c2-3 5-4 8-4 4 0 7 1 9 4 5 5 5 13 0 18l-42 42c-5 5-13 5-18 0l-42-42c-5-5-5-13 0-18 5-5 13-5 18 0l20 21 0-3c0-63 25-122 69-166 45-44 104-69 166-69 63 0 122 25 166 69 45 44 69 103 69 166 0 63-24 122-69 166z m-166-19c-7 0-12-6-12-13l0-30-8 0c-32 0-58-26-58-58 0-32 26-58 58-58l41 0c18 0 32-15 32-33 0-18-14-33-32-33l-74 0c-7 0-13-5-13-12 0-7 6-13 13-13l41 0 0-31c0-7 5-13 12-13 7 0 13 6 13 13l0 31 8 0c0 0 0 0 1 0 31 0 57 26 57 58 0 32-26 58-58 58l-41 0c-18 0-33 15-33 33 0 18 15 32 33 32l72 0c7 0 13 6 13 13 0 7-6 13-13 13l-39 0 0 30c0 7-6 13-13 13z"/>
<glyph glyph-name="language" unicode="&#73;" d="M458 512l-404 0c-30 0-54-24-54-54l0-404c0-30 24-54 54-54l404 0c30 0 54 24 54 54l0 404c0 30-24 54-54 54z m28-458c0-16-12-28-28-28l-404 0c-16 0-28 12-28 28l0 404c0 16 12 28 28 28l404 0c16 0 28-12 28-28z m-218 340c0 0 0 0 0 0 0 1-1 1-1 2 0 0 0 0 0 1-1 0-1 0-1 1 0 0-1 0-1 1 0 0-1 0-1 0 0 1-1 1-1 1 0 0-1 1-1 1 0 0-1 0-1 0 0 0-1 1-1 1 0 0 0 0 0 0-1 0-1 0-2 0 0 0 0 0-1 0 0 0-1 0-1 0-1 0-1 0-1 0-1 0-1 0-2 0 0 0 0 0-1 0 0 0 0 0 0 0-1-1-1-1-1-1 0 0-1 0-1 0 0-1-1-1-1-1-1 0-1 0-1-1 0 0-1 0-1 0 0-1-1-1-1-1 0-1 0-1-1-1 0-1 0-1 0-1 0-1-1-1-1-2 0 0 0 0 0 0l-96-267c-2-7 1-14 8-17 2 0 3 0 4 0 6 0 10 3 12 8l28 77 111 0c0 0 1 0 1 0l27-77c2-5 7-8 12-8 2 0 3 0 5 0 6 3 10 10 7 17z m-59-174l47 132 47-132z"/>
<glyph glyph-name="smartphone" unicode="&#74;" d="M153 24l206 0c21 0 37 17 37 37l0 390c0 20-16 37-37 37l-206 0c-21 0-37-17-37-37l0-390c0-20 16-37 37-37z m218 108l-230 0 0 270 230 0z m-12-82l-206 0c-6 0-12 5-12 11l0 46 230 0 0-46c0-6-6-11-12-11z m-206 412l206 0c7 0 12-5 12-11l0-23-230 0 0 23c0 6 6 11 12 11z m129-370l-52 0c-7 0-12-6-12-13 0-8 5-13 12-13l52 0c7 0 12 5 12 13 0 7-5 13-12 13z m186 0l-37 0c-7 0-13-6-13-13 0-8 6-13 13-13l37 0c24 0 44 19 44 44l0 292c0 24-20 44-44 44l-37 0c-7 0-13-6-13-13 0-7 6-13 13-13l37 0c10 0 18-8 18-18l0-292c0-10-8-18-18-18z m-424-26l37 0c7 0 13 6 13 13 0 7-6 13-13 13l-37 0c-10 0-18 8-18 18l0 292c0 10 8 18 18 18l37 0c7 0 13 6 13 13 0 8-6 13-13 13l-37 0c-24 0-44-19-44-44l0-292c0-24 20-44 44-44z"/>
<glyph glyph-name="internet" unicode="&#75;" d="M478 58c0 7-5 12-12 12l-164 0c-5 17-18 29-34 34l0 36c0 7-5 13-12 13-7 0-12-6-12-13l0-36c-16-5-29-17-33-34l-165 0c-7 0-12-5-12-12 0-7 5-12 12-12l165 0c5-20 23-35 45-35 22 0 40 15 46 35l164 0c7 0 12 5 12 12z m-222-22c-12 0-23 10-23 22 0 13 11 23 23 23 13 0 23-10 23-23 0-12-10-22-23-22z m-61 453c-40-17-70-47-87-87-16-39-16-83 0-122 25-61 83-99 148-99 21 0 42 4 61 12 40 16 71 47 87 86 16 40 16 83 0 123-25 60-83 99-148 99-21 0-42-4-61-12z m189-104c10-29 10-60 0-89l-37 0c4 16 6 31 6 45 0 15-2 29-5 44z m-56-44c0-14-2-30-6-45l-54 0 0 89 55 0c3-14 5-29 5-44z m-200-45c-10 29-10 60 0 89l36 0c-3-15-4-30-4-44 0-14 1-29 5-45z m56 45c0 15 2 30 5 44l55 0 0-89-54 0c-4 15-6 31-6 45z m60 129l0-61-48 0c11 31 29 54 48 61z m0-198l0-60c-18 8-35 31-46 60l46 0z m24-60l0 60 46 0c-11-29-28-52-46-60z m0 197l0 61c19-7 37-30 48-61z m-72 53c-11-14-20-32-26-53l-31 0c14 23 33 42 57 53z m-57-190l33 0c7-20 17-40 29-55-26 11-47 30-62 55z m172-55c12 15 22 35 29 55l33 0c-14-24-36-43-62-55z m62 192l-31 0c-6 21-15 39-26 54 23-12 43-30 57-54z"/>
<glyph glyph-name="clock" unicode="&#70;" d="M256 512c71 0 134-29 181-75 46-46 75-110 75-181 0-71-29-135-75-181-47-46-110-75-181-75-71 0-135 29-181 75-46 46-75 110-75 181 0 71 29 135 75 181 46 46 110 75 181 75z m130-242c8 0 14-6 14-14 0-8-6-14-14-14l-130 0c-5 0-10 3-12 7l0 0-1 1 0 0 0 0 0 1 0 0 0 0 0 0 0 1 0 0 0 0-1 1 0 1 0 0 0 169c0 7 6 13 14 13 8 0 14-6 14-13l0-153z m31 147c-41 42-98 67-161 67-63 0-120-25-161-67-42-41-67-98-67-161 0-63 25-120 67-161 41-42 98-67 161-67 63 0 120 25 161 67 42 41 67 98 67 161 0 63-25 120-67 161z"/>
<glyph glyph-name="next" unicode="&#71;" d="M63 245c-47-56-63-122-63-165 0-6 4-11 10-12 1-1 2-1 3-1 4 0 9 3 11 7 65 115 188 121 269 121l0-83c0-5 2-10 7-12 4-2 10-1 13 2l194 160c3 3 5 6 5 10 0 4-2 8-5 10l-193 160c-4 3-10 4-14 2-5-3-7-7-7-12l0-84c-124-4-193-58-230-103z m243 78c7 0 12 6 12 13l0 69 161-133-161-133 0 69c0 3-1 7-4 9-2 2-5 4-9 4-74 0-193 0-273-91 20 79 89 191 274 193z"/>
<glyph glyph-name="rich-message" unicode="&#76;" d="M314 278l149 0c23 0 42 19 42 42l0 150c0 23-19 42-42 42l-149 0c-24 0-43-19-43-42l0-150c0-23 19-42 43-42z m-17 192c0 9 7 16 17 16l149 0c9 0 16-7 16-16l0-150c0-9-7-16-16-16l-149 0c-10 0-17 7-17 16z m-185 17c-5 5-13 5-19 0l-83-83c-5-5-5-13 0-18l83-83c3-3 6-4 10-4 3 0 6 1 9 4 5 5 5 13 0 18l-62 61 180 0c7 0 13 6 13 13 0 7-6 13-13 13l-180 0 62 61c5 5 5 13 0 18z m-105-445c0-23 19-42 42-42l149 0c24 0 43 19 43 42l0 150c0 23-19 42-43 42l-149 0c-23 0-42-19-42-42l0-150z m25 150c0 9 8 16 17 16l149 0c9 0 17-7 17-16l0-150c0-9-8-16-17-16l-149 0c-9 0-17 7-17 16l0 150z m250-88l179 0-61-61c-5-5-5-13 0-18 3-3 6-4 9-4 4 0 7 1 10 4l83 83c2 2 3 6 3 9 0 3-1 7-3 9l-83 83c-6 5-14 5-19 0-5-5-5-13 0-18l62-61-180 0c-7 0-13-6-13-13 0-7 6-13 13-13z"/>
<glyph glyph-name="plus" unicode="&#77;" d="M492 276l-216 0 0 216c0 11-9 20-20 20-11 0-20-9-20-20l0-216-216 0c-11 0-20-9-20-20 0-11 9-20 20-20l216 0 0-216c0-11 9-20 20-20 11 0 20 9 20 20l0 216 216 0c11 0 20 9 20 20 0 11-9 20-20 20z"/>
<glyph glyph-name="dislike" unicode="&#78;" d="M490 348c2 6 4 13 4 22 1 15-3 36-24 55 1 10 1 26-7 41-12 21-34 35-67 42-22 4-51 5-85 3-71 1-139-8-143-8l-25-3c-8 5-17 8-26 8l-65 0c-25 0-45-20-45-45l0-174c0-24 20-44 45-44l65 0c8 0 15 2 21 5 5-10 11-21 21-31 1-1 1-1 2-2 33-26 73-119 87-157-1-11-3-37 9-51 5-6 13-9 21-9 8 0 37 2 54 26 17 24 18 59 3 104-13 39-14 56-13 63 5-2 11-3 17-4l0 0c1 0 24-5 52-7 40-2 69 5 86 21 24 21 21 48 14 66 6 8 13 20 14 37 0 14-5 29-15 42z m-373-74l-65 0c-9 0-16 7-16 15l0 174c0 9 7 16 16 16l65 0c9 0 16-7 16-16l0-174c0-8-7-15-16-15z m344-11c0 0 4-6 5-14 2-10-1-18-8-25-21-19-80-14-112-7-1 0-1 0-2 0-6 1-12 3-18 4-7 3-17 2-24-4-14-13-12-41 5-96 12-36 13-63 2-78-9-12-25-14-30-14-3 4-4 19-2 31 0 2 0 5-1 7-2 5-49 134-97 172-12 14-18 30-20 37 2 4 2 9 2 13l0 174c0 3 0 7 0 10l10 1 0 0c1 0 71 9 140 8 0 0 1 0 1 0 33 2 59 1 78-3 24-5 40-14 47-27 8-13 4-26 3-28-2-6 0-12 5-16 32-24 17-52 16-55-4-6-3-13 1-18 10-9 14-19 14-28-1-14-11-25-12-25-5-5-6-13-3-19z"/>
<glyph glyph-name="like" unicode="&#79;" d="M490 164c10 13 15 28 15 42-1 17-8 29-14 37 7 18 10 45-14 66-17 16-46 23-86 21-28-2-51-7-52-7l0 0c-6-1-12-2-17-4-1 7 0 24 13 63 15 45 14 80-3 104-17 24-46 26-54 26-8 0-16-3-21-9-12-14-10-40-9-51-14-38-54-131-87-157-1-1-1-1-2-2-10-10-16-21-21-31-6 3-13 5-21 5l-65 0c-25 0-45-20-45-44l0-174c0-25 20-45 45-45l65 0c10 0 18 3 26 8l25-3c4 0 72-9 143-8 12 0 24-1 35-1 20 0 36 1 50 4 33 7 55 21 67 42 8 15 8 31 7 41 21 19 25 40 24 55 0 9-2 16-4 22z m-438-131c-9 0-16 7-16 16l0 174c0 8 7 15 16 15l65 0c9 0 16-7 16-15l0-174c0-9-7-16-16-16l-65 0z m411 143c-5-4-6-11-2-17 0 0 4-8 5-18 0-14-6-26-21-37-5-4-7-10-5-16 0-1 5-15-2-28-8-13-24-22-48-27-19-4-45-5-78-3 0 0-1 0-1 0-69-1-139 8-140 8l0 0-10 1c0 3 1 7 1 10l0 174c0 4-1 9-2 13 1 7 7 23 19 37 48 38 95 167 98 172 0 2 1 5 0 7-2 12-1 27 2 31 5 0 21-1 30-14 11-15 10-42-2-78-18-54-19-83-5-96 7-6 17-6 24-4 6 2 12 3 18 4 1 0 1 0 2 0 32 7 91 12 112-7 17-16 5-37 3-39-4-6-2-14 3-19 0 0 11-10 12-25 0-9-4-19-13-29z"/>
<glyph glyph-name="send" unicode="&#80;" d="M44 7c-31-16-50-2-42 33l33 147c4 17 21 33 39 35l198 23c53 6 53 16 0 22l-198 23c-18 2-35 17-39 34l-33 149c-8 34 11 48 42 32l412-219c31-17 31-43 0-60l-412-219z"/>
</font>
</defs>
</svg>
